Skip to main content

Baghdad Scuba Review Live at High Noon Saloon on 2008-01-11




Setlist:
01. Raffle
02. Introduction
03. Day Breaks
04. Breathe
05. Stage Banter
06. Scuba Snacks
08. Busted
09. Difference a Day
10. Set Yourself
11. Here
12. Water
13. The Night They Drove Ol' Dixie Down
14. Crowd
15. Crowd


Collection BaghdadScubaReview
Band/Artist Baghdad Scuba Review
Venue High Noon Saloon
Location Madison WI USA

Source Neumann KM140's (ORTF, shock mounted and clamped to balcony railing, house right, slightly FOB) > Beyer MV100 > Zoom H2 Handy Recorder @24-bit/48KHz
Lineage WAV > Audacity 1.2.6 (conversion to 16-bit AIFF, conversion to 44.1KHz, tracking in 1/75 second intervals) > AIFF files > xACT 1.59 > FLAC (level 8 compression)
Taped by TAS aka morst
Transferred by TAS aka morst

Notes

Friday, January 11, 2008

REVISED VERSION with correct tracking

Goodtime Camper, Elf Lettuce, Baghdad Scuba Review, & Eugene Smiles Project - Benefit gig for La Hesperia

Mixed by Gavin, HNS FoH

SHNTOOL
length expanded size cdr WAVE problems fmt ratio filename
2:43.18 28795580 B --- -- ---xx BaghdadScubaReview2008-01-11t01.flac
0:36.40 6444524 B --- -- ---xx BaghdadScubaReview2008-01-11t02.flac
7:19.57 77573708 B --- -- ---xx BaghdadScubaReview2008-01-11t03.flac
7:18.71 77430236 B --- -- ---xx BaghdadScubaReview2008-01-11t04.flac
1:05.58 11602460 B --- -- ---xx BaghdadScubaReview2008-01-11t05.flac
7:43.30 81743804 B --- -- ---xx BaghdadScubaReview2008-01-11t06.flac
6:56.10 73405964 B --- -- ---xx BaghdadScubaReview2008-01-11t07.flac
5:42.69 60491132 B --- -- ---xx BaghdadScubaReview2008-01-11t08.flac
5:03.44 53552732 B --- -- ---xx BaghdadScubaReview2008-01-11t09.flac
3:53.51 41221196 B --- -- ---xx BaghdadScubaReview2008-01-11t10.flac
5:40.10 59999564 B --- -- ---xx BaghdadScubaReview2008-01-11t11.flac
4:11.50 44394044 B --- -- ---xx BaghdadScubaReview2008-01-11t12.flac
1:45.08 18540860 B --- -- ---xx BaghdadScubaReview2008-01-11t13.flac
0:48.16 8504876 B --- -- ---xx BaghdadScubaReview2008-01-11t14.flac
60:49.07 643700680 B 0.5290 (14 files)


-=-=-=-=-=-=-=-=-=-=-=-=-=-=-=-=-=-=-=-=-=-=-=-=-
Soundscape Preservation Society Founded 1991
http://www.iamtypingwithonefinger.com/SPS.html
-=-=-=-=-=-=-=-=-=-=-=-=-=-=-=-=-=-=-=-=-=-=-=-=-

Reviews

Reviewer: morst - - June 14, 2008
Subject: Tracking. . .
Awright, this is now tracked properly! Thanks to Rob for the titles, and the previous reviewers for the reminders!
Reviewer: LTF - - June 14, 2008
Subject: sweet
madison's on the front of the archive!!!
Reviewer: jimi steward - - June 13, 2008
Subject: finally made it
glad 2 c scuba's now on the archive.If u like your music a little heady check these guys out.Ill give the show a 5 and the sound a 3 hence the 4.hope 2 c more shows pop up.any chance some1 can fix the tracking.......... scuba snacks and water ?
PEOPLE ALSO FOUND
Baghdad Scuba Review
by Baghdad Scuba Review
2,215
1
0
Source: SBD + Audience Matrix
Baghdad Scuba Review
by Baghdad Scuba Review
1,783
1
3
( 3 reviews )
Source: Neumann KM140's (ORTF, shock mounted and clamped to balcony railing, house right, slightly FOB) > Beyer MV100 > Zoom H2 Handy Recorder @24-bit/48KHz
Cracker
by Cracker
246
1
0
Source: DAUD @48kHz, 24 bit
Community Video
by saamot
62
1
0
Reason For Leaving
by Reason For Leaving
3,080
0
2
( 2 reviews )
Source: Neumann KM140's > Beyer MV100 > Sony SBM-1 (Oade mod) > Sony TCD-D100 DAT @48KHz
Jonathan Segel
by Jonathan Segel
412
2
1
( 1 reviews )
Source: Neumann KM140's (shock-mounted ORTF pair ~8' from right side PA speaker ~7' high, clamped to beam support) > Beyer MV100 > Sony PCM-D50 (pass through) > Zoom H2 > WAV @24bit/48KHz
Blueheels
240
1
0
Source: Audience > Zoom H2 > WAV
Dark Meat
613
1
1
( 1 reviews )
Source: KM140's > MV100 > PCM-M1
The Kind
by The Kind
4,417
2
0
Source: Stereo SBD > Nakamichi 480 MCAS
Blueheels
by Blueheels
546
1
0
Source: SBD + Audience Matrix